Hello (2017) Telugu - 720p - WEB-HD - AVC - AAC - ESub - TMV

Hello (2017) Telugu - 720p - WEB-HD - AVC - AAC - ESub - TMV






General
Format                      : MPEG-4
Format profile              : Base Media
Codec ID                    : isom (isom/avc1/iso2)
File size                   : 1.85 GiB
Duration                    : 2 h 0 min
Overall bit rate mode       : Variable
Overall bit rate            : 2 190 kb/s
ContentType                 : Movie
Encoded date                : UTC 2018-05-31 04:21:17
Tagged date                 : UTC 2018-05-31 04:21:53
Writing application         : MkvToMp4 [www.mkvtomp4.ru] version: 0.224 (x64)
HDVideo                     : Yes

Video
ID                          : 1
Format                      : AVC
Format/Info                 : Advanced Video Codec
Format profile              : Main@L3.1
Format settings, CABAC      : Yes
Format settings, RefFrames  : 1 frame
Format settings, GOP        : M=1, N=25
Codec ID                    : avc1
Codec ID/Info               : Advanced Video Coding
Duration                    : 2 h 0 min
Bit rate mode               : Constant
Bit rate                    : 2 000 kb/s
Maximum bit rate            : 4 453 kb/s
Width                       : 1 280 pixels
Height                      : 720 pixels
Display aspect ratio        : 16:9
Frame rate mode             : Constant
Frame rate                  : 25.000 FPS
Color space                 : YUV
Chroma subsampling          : 4:2:0
Bit depth                   : 8 bits
Scan type                   : Progressive
Bits/(Pixel*Frame)          : 0.087
Stream size                 : 1.68 GiB (91%)
Language                    : Telugu
Encoded date                : UTC 2018-05-31 04:21:17
Tagged date                 : UTC 2018-05-31 04:21:41

Audio
ID                          : 2
Format                      : AAC
Format/Info                 : Advanced Audio Codec
Format profile              : LC
Codec ID                    : 40
Duration                    : 2 h 0 min
Bit rate mode               : Variable
Bit rate                    : 192 kb/s
Maximum bit rate            : 208 kb/s
Channel(s)                  : 2 channels
Channel positions           : Front: L R
Sampling rate               : 44.1 kHz
Frame rate                  : 43.066 FPS (1024 SPF)
Compression mode            : Lossy
Stream size                 : 169 MiB (9%)
Language                    : Telugu
Default                     : Yes
Alternate group             : 1
Encoded date                : UTC 2018-05-31 04:21:37
Tagged date                 : UTC 2018-05-31 04:21:41



SINGLE DIRECT FAST LINKS

http://www.heroupload.us/d57833964af3eb7c/Hello.2017.Telugu.WEB-HD.720p.AVC.AAC-TMV.mp4
http://www.heroupload.us/aec77f53c7ab781d/Hello.2017.Telugu.WEB-HD.720p.AVC.AAC-TMV.srt



http://filefloater.com/Thy/Hello.2017.Telugu.WEB-HD.720p.AVC.AAC-TMV.mp4
http://filefloater.com/Thz/Hello.2017.Telugu.WEB-HD.720p.AVC.AAC-TMV.srt






шаблоны для dle 11.2