Hello (2017) Telugu - 1080p - WEB-HD - AVC - AAC - ESub - TMV

Hello (2017) Telugu - 1080p - WEB-HD - AVC - AAC - ESub - TMV






General
Format                      : MPEG-4
Format profile              : Base Media
Codec ID                    : isom (isom/avc1/iso2)
File size                   : 3.96 GiB
Duration                    : 2 h 0 min
Overall bit rate mode       : Variable
Overall bit rate            : 4 682 kb/s
ContentType                 : Movie
Encoded date                : UTC 2018-05-31 05:44:25
Tagged date                 : UTC 2018-05-31 05:45:11
Writing application         : MkvToMp4 [www.mkvtomp4.ru] version: 0.224 (x64)

Video
ID                          : 1
Format                      : AVC
Format/Info                 : Advanced Video Codec
Format profile              : Main@L4
Format settings, CABAC      : Yes
Format settings, RefFrames  : 1 frame
Format settings, GOP        : M=1, N=25
Codec ID                    : avc1
Codec ID/Info               : Advanced Video Coding
Duration                    : 2 h 0 min
Bit rate mode               : Constant
Bit rate                    : 4 500 kb/s
Maximum bit rate            : 10.4 Mb/s
Width                       : 1 920 pixels
Height                      : 1 080 pixels
Display aspect ratio        : 16:9
Frame rate mode             : Constant
Frame rate                  : 25.000 FPS
Color space                 : YUV
Chroma subsampling          : 4:2:0
Bit depth                   : 8 bits
Scan type                   : Progressive
Bits/(Pixel*Frame)          : 0.087
Stream size                 : 3.79 GiB (96%)
Language                    : Telugu
Encoded date                : UTC 2018-05-31 05:44:25
Tagged date                 : UTC 2018-05-31 05:44:58

Audio
ID                          : 2
Format                      : AAC
Format/Info                 : Advanced Audio Codec
Format profile              : LC
Codec ID                    : 40
Duration                    : 2 h 0 min
Bit rate mode               : Variable
Bit rate                    : 192 kb/s
Maximum bit rate            : 208 kb/s
Channel(s)                  : 2 channels
Channel positions           : Front: L R
Sampling rate               : 44.1 kHz
Frame rate                  : 43.066 FPS (1024 SPF)
Compression mode            : Lossy
Stream size                 : 169 MiB (4%)
Language                    : Telugu
Default                     : Yes
Alternate group             : 1
Encoded date                : UTC 2018-05-31 05:44:54
Tagged date                 : UTC 2018-05-31 05:44:58

Text
ID                          : 3
Format                      : Timed Text
Muxing mode                 : sbtl
Codec ID                    : tx3g
Duration                    : 1 h 59 min
Bit rate mode               : Variable
Bit rate                    : 58 b/s
Stream size                 : 50.9 KiB (0%)
Language                    : English
Default                     : Yes
Forced                      : No
Alternate group             : 2
Encoded date                : UTC 2018-05-31 05:44:58
Tagged date                 : UTC 2018-05-31 05:44:58




SINGLE DIRECT FAST LINKS
http://www.heroupload.us/6deb702ab5f87a08/Hello.2017.Telugu.WEB-HD.1080p.AVC.AAC-TMV.mp4


http://filefloater.com/1jiu/Hello.2017.Telugu.WEB-HD.1080p.AVC.AAC-TMV.mp4

1GB LINKS

http://www.heroupload.us/e13462b397b26fc9/Hello.2017.Telugu.WEB-HD.1080p.AVC.AAC-TMV.part1.rar
http://www.heroupload.us/51308bd6c6696c46/Hello.2017.Telugu.WEB-HD.1080p.AVC.AAC-TMV.part2.rar
http://www.heroupload.us/afe43b15d7df5f55/Hello.2017.Telugu.WEB-HD.1080p.AVC.AAC-TMV.part3.rar
http://www.heroupload.us/b8553d53f77944f1/Hello.2017.Telugu.WEB-HD.1080p.AVC.AAC-TMV.part4.rar
http://www.heroupload.us/aba3c5878b47e85e/Hello.2017.Telugu.WEB-HD.1080p.AVC.AAC-TMV.srt



http://filefloater.com/1jiv/Hello.2017.Telugu.WEB-HD.1080p.AVC.AAC-TMV.part1.rar
http://filefloater.com/1jiw/Hello.2017.Telugu.WEB-HD.1080p.AVC.AAC-TMV.part2.rar
http://filefloater.com/1jix/Hello.2017.Telugu.WEB-HD.1080p.AVC.AAC-TMV.part3.rar
http://filefloater.com/1jiy/Hello.2017.Telugu.WEB-HD.1080p.AVC.AAC-TMV.part4.rar
http://filefloater.com/1jiz/Hello.2017.Telugu.WEB-HD.1080p.AVC.AAC-TMV.srt



шаблоны для dle 11.2